yogatrends01@gmail.com
(440) 537-8429 (Text Only)
Mon – Sat 8 to 8p.m. est

Note: This is not the same source with Cinema Black bar to sample

Split, rotate, crop, resize, video quality ultimately merge into one is not better appreciate feedback

common

Full name: Suicide Squad 2016

MPEG-4

Format profile: Base Media / Version 2

Codec ID: mp42

File size: 711 MiB

48mn first time:

Overall bit rate mode: Variable

Overall bit rate: 921 Kbps

video

ID: 1

Format: AVC

Format / Info: Advanced Video Codec

Format profile:/ * * /

settingformat, CABAC: Yes

setting format, reframes: 4 frames

Codec ID: VC1

Codec ID / Info: Advanced Video Coding

48mn first time:

Bit rate: 720 Kbps

Width: 600 pixels

Height: 270 pixels

Display aspect ratio:

Frame rate mode: Variable

fps frame rate

Minimum fps frame rate

Maximum fps frame rate

Color Space: YUV

Chroma subsampling: 4: 2: 0

Bit Depth: 8 bit

Scan type: Progressive

Bits / (Pixel * Frame):

Stream size: 556 MiB (78%)

Writing library: x264 core 142 r2479 dd79a61

audio

ID: 2

format:AAC

Format / Info: Advanced Audio Codec

Format profile: LC

Codec ID: 40

48mn first time:

Bit rate mode: Variable

Bit rate: 192 Kbps

Channel (s): 2 channels

Channel positions: Front: LR

Sampling rate kHz

Compression mode: Lossy

Stream size: 149 MiB (21%)

Title: Stereo / Stereo

English

Suicide Squad 2016 x264 DTS BiGDADDYVAiN

PE R E N T S,

:

Tech. I N F O

basic information

Format: Matroska

Format version: Version 4 / Version 2

File size: MiB

Duration: 1 hour 53minuto

overallBit rate mode: Variable

Overall bit rate: 2069 kb / s

Date coded: 08/14/2016 19:10:20 UTC

written application: mkvmerge ( ‘Over the Horizon’) 64bit

writes library: libebml + libmatroska

video

ID: 1

Format: AVC

Format / Info: Advanced Video Codec

Format profile: / * * /

format settings, CABAC: Yes

formatinstitusi reframes: 3 frame

Codec ID: V_MPEG4 / ISO / AVC

Duration: 1 hour 53 minutes

Bit rate mode: Variable

Bitrate: 1875 kb / s

The maximum bit rate: Kb / s

Width: 704pixels

Height: 288 pixels

the aspect ratio of the display :: 1

Frame rate mode: Constant

Frame Rate: FPS

Color Space: YUV

Chroma subsampling: 4: 2: 0

Bit Depth: 8 bit

Scan type: Progressive

Bits / (Pixel * Frame):

Stream size: MiB (91%)

Writing library: x264 core 148 r2692 64f4e24

Default: Yes

Force: None

warnaRange: Full

Preliminary Color:

transfer of the property:

Matrix coefficients:

audio

ID: 2

Format: MPEG Audio

Format version: Version 1

Format profile: Layer 3

Mode: Joint stereo

advancedMode:MS Stereo

Codec ID: A_MPEG / L3

Codec ID / Hint: MP3

Duration: 1 hour 53 minutes

Bit rate mode: Constant

Bit Rate: 192 kb / s

Channel (s): 2 channels

Sampling rate kHz

FPS frame rate (SPF 1152)

Compression mode: Lossy

Stream size: 156 MiB (9%)

E CO N D E R S T O N E S.

:

…………:

: Yippers

ADDED: CPG well with relief as the sum needed to poo no mistake again set eyes. size, crop and chopped plus ol ‘Shiner filter: wink: iflive audio lines are less andsprayed down with unclean take now what we have is made of diamond: shit:

screen:

Suicide Squad 2016

Add Comment

Your email address will not be published. Required fields are marked *

Style switcher RESET
Color scheme