yogatrends01@gmail.com
(440) 537-8429 (Text Only)
Mon – Sat 8 to 8p.m. est

The Jungle Book (original title)

PG | 1h 46min | Adventure, Drama, Family

Shere Khan the tiger, forcing him to flee into the forest after a threat, with the help of the man-cub Mowgli, Bagheera the panther, embarks on a journey of self-discovery, and Baloo the bear spirited.

Director: Jon Favreau

Writers: Justin Marks (screenplay), Rudyard Kipling (book)

Stars: Neel Sethi, Bill Murray, Ben Kingsley

NoCTRL files! Fast Download Speed! Files Clean! NO SPAM! There are no pop-ups or birzuzenketakPantaila Preview!Rememberto seed!

– The most trusted VPN service! hiding your online identity or Money Affiliate System. Get started today with a simple click here

storyline:

The man-cub Mowgli the jungle flight, after the threat of the tiger Shere Khan. Bagheera the panther and bear Baloo, Mowgli led embarks on a journey of self-discovery, but that he also met the creatures that do not have their best interests at heart.

overall:

: Matroska

File: MiB

1h 45mn

3607 Kbps

: BluRay

Encoder ……. JYK

video:

Video: AVC

Video:x264core 148 r2638 7.59921 billion

2850 Kbps

Structure: fps

: 1920 pixels

1036 pixel

Party :: 1

Audio # 1:

DTS

755 Kbps

: 6 channels

Sampling: KHz

Inglesa

subtitles:

language

SRT ………………….. Inglesa

SRT ………………….. Arabic

SRT ………………….. German

SRT ………………….. Greece

SRT ………………….. Italy

SRT ………………….. Romania

================================================== ==================

====================================================================

====================================================================

================================================== ==================

video

ID: 1

Format: AVC

Format / Info: Advanced Video Codec

Format profile: / * /

Format settings, Cabaça: Yes

Format settings, reframes: 4 frames

Codec ID: V_MPEG4 / ISO / AVC

Duration: 1h 45min

Bit rate: 7515 Kbps

Width: 1920 pixels

Height: 1040 pixels

displayaspektu ratio of 1 ::

Frame mode: Constant

Frame Size: (24000/1001)fps

Color Space: YUV

Chroma subsampling: 4: 2: 0

Bit Depth: 8 bits

Scan type:Progressive

Bits / (Pixel * Frame):

Stream size: MiB (82%)

Writing library: x264 core 148 r2705 3f5ed56

language Inglesa

Default: Yes

Mandatory: No

================================================== ==================

audio

ID: 2

Format: DTS

Format / Info: Digital Theater Systems

Mode: 16

Format settings, endianness: Large

Codec ID: A_DTS

Duration: 1h 45min

Bit rate mode: Constant

Bit rate:1509 Kbps

Channel (s): 6 channels

Channel positions: Front: L C R, Side: LR, LFE

Sampling rate: KHz

Framefps (512 SPF)

Bit Depth: 24-bit

Compression mode: Lossy

Stream size: MiB (16%)

language Inglesa

Default: Yes

Mandatory: No

================================================== ==================

text

ID: 3

Format: UTF-8

Codec ID: S_TEXT / UTF8

Codec ID / Info: UTF-8 Plain Text

language Inglesa

Default: Yes

Mandatory: No

================================================== ==================

menu

00:00:and: 00: 00

00:00: and: 00: 00

00:05: and: 00: 05

00:09: and: 00: 09

00:12: and: 00: 12

00:16 and: 00: 16

00:21: and: 00: 21

00:27: and: 00: 27

00:35: and: 00: 35

00:43: and: 00: 43

00:48: and: 00: 48

00:53: and: 00: 53

00:58: and: 00: 58

01:05: and: 01: 05

01:10: and: 01: 10

01:17: and: 01: 17

01:20: and: 01: 20

01:24: and: 01: 24

01:30: and: 01: 30

01:35: and: 01: 35

================================================== ==================

FGT special thanks

================================================== ==================

:::::::::::: Screens

====================================================================

================================================== ==================

Greet Zaan: Sam | Ozimek | juggs | LRS | Surendra | Psix | mast | MGB | 3Li | tomcat12 | BADASSMEDIA | Ozlem | ETRG and other managers extratorrent |.

================================================== ==================

The Jungle Book 2016

Add Comment

Your email address will not be published. Required fields are marked *

Style switcher RESET
Color scheme